Part of Slepp's ProjectsPastebinTURLImagebinFilebin
Feedback -- English French German Japanese
Create Upload Newest Tools Donate
Sign In | Create Account

Unnamed
Sunday, October 28th, 2007 at 12:19:57pm UTC 

  1. REM GENRE Misc
  2. REM DATE 2002
  3. REM COMMENT √úberStandard - UberNet.org, EAC (Secure Mode)
  4. PERFORMER "Juno Reactor"
  5. TITLE "Hotaka"
  6. REM REPLAYGAIN_ALBUM_GAIN -7.40 dB
  7. REM REPLAYGAIN_ALBUM_PEAK 1.151420
  8. FILE "Juno Reactor - Hotaka.mpc" WAVE
  9.   TRACK 01 AUDIO
  10.     TITLE "Hotaka (Radio Edit)"
  11.     REM REPLAYGAIN_TRACK_GAIN -8.80 dB
  12.     REM REPLAYGAIN_TRACK_PEAK 1.151420
  13.     INDEX 01 00:00:00
  14.   TRACK 02 AUDIO
  15.     TITLE "Hotaka"
  16.     REM REPLAYGAIN_TRACK_GAIN -8.21 dB
  17.     REM REPLAYGAIN_TRACK_PEAK 1.132541
  18.     INDEX 01 03:35:35
  19.   TRACK 03 AUDIO
  20.     TITLE "Hotaka (KLOQ Remix)"
  21.     REM REPLAYGAIN_TRACK_GAIN -6.37 dB
  22.     REM REPLAYGAIN_TRACK_PEAK 1.067078
  23.     INDEX 01 11:56:05
  24.   TRACK 04 AUDIO
  25.     TITLE "Hotaka (Kris Kylven Remix)"
  26.     REM REPLAYGAIN_TRACK_GAIN -4.36 dB
  27.     REM REPLAYGAIN_TRACK_PEAK 1.034017
  28.     INDEX 01 19:56:20

Update the Post

Either update this post and resubmit it with changes, or make a new post.

You may also comment on this post.

update paste below
details of the post (optional)

Note: Only the paste content is required, though the following information can be useful to others.

Save name / title?

(space separated, optional)



Please note that information posted here will expire by default in one month. If you do not want it to expire, please set the expiry time above. If it is set to expire, web search engines will not be allowed to index it prior to it expiring. Items that are not marked to expire will be indexable by search engines. Be careful with your passwords. All illegal activities will be reported and any information will be handed over to the authorities, so be good.

comments powered by Disqus
worth-right
worth-right