Part of Slepp's ProjectsPastebinTURLImagebinFilebin
Feedback -- English French German Japanese
Create Upload Newest Tools Donate
Sign In | Create Account

Untitled
Wednesday, February 22nd, 2012 at 9:25:36pm UTC 

  1. $ ffprobe DIVISION_ONLINED_23_98.mov
  2. ffprobe version N-38122-gf16c950 Copyright (c) 2007-2012 the FFmpeg developers
  3.   built on Feb 22 2012 15:48:49 with gcc 4.6.1
  4.   configuration: --enable-nonfree --enable-libopenjpeg --enable-libx264 --enable-shared --enable-vaapi --enable-gpl --enable-debug
  5.   libavutil      51. 40.100 / 51. 40.100
  6.   libavcodec     544.100 / 544.100
  7.   libavformat    541.100 / 541.100
  8.   libavdevice    534.100 / 534.100
  9.   libavfilter     2. 62.1012. 62.101
  10.   libswscale      21.10021.100
  11.   libswresample   07.10007.100
  12.   libpostproc    520.100 / 520.100
  13. Input #0, mov,mp4,m4a,3gp,3g2,mj2, from 'DIVISION_ONLINED_23_98.mov':
  14.   Metadata:
  15.     major_brand     : qt 
  16.     minor_version   : 537199360
  17.     compatible_brands: qt 
  18.     creation_time   : 2010-04-19 03:01:54
  19.   Duration: 00:10:39.88, start: 0.000000, bitrate: 161379 kb/s
  20.     Stream #0:0(eng): Video: prores (ap4h / 0x68347061), yuv444p10le, 1920x1080, 159814 kb/s, SAR 1:1 DAR 16:9, 23.98 fps, 23.98 tbr, 23976 tbn, 23976 tbc
  21.     Metadata:
  22.       creation_time   : 2010-04-19 03:01:54
  23.       handler_name    : ?Apple Alias Data Handler
  24.     Stream #0:1(eng): Audio: pcm_s16le (sowt / 0x74776F73), 48000 Hz, 2 channels, s16, 1536 kb/s
  25.     Metadata:
  26.       creation_time   : 2010-04-19 03:01:54
  27.       handler_name    : ?Apple Alias Data Handler
  28.     Stream #0:2(eng): Data: none (tmcd / 0x64636D74)
  29.     Metadata:
  30.       creation_time   : 2010-04-19 03:08:57
  31.       handler_name    : ?Apple Alias Data Handler
  32.       timecode        : 00:59:41:23
  33. Unsupported codec with id 0 for input stream 2
  34.  
  35. $ ffmpeg -ss 100 -i DIVISION_ONLINED_23_98.mov -vcodec copy -acodec copy -t 10 Pro_res_test.mov
  36. ffmpeg version N-38122-gf16c950 Copyright (c) 2000-2012 the FFmpeg developers
  37.   built on Feb 22 2012 15:48:49 with gcc 4.6.1
  38.   configuration: --enable-nonfree --enable-libopenjpeg --enable-libx264 --enable-shared --enable-vaapi --enable-gpl --enable-debug
  39.   libavutil      51. 40.100 / 51. 40.100
  40.   libavcodec     544.100 / 544.100
  41.   libavformat    541.100 / 541.100
  42.   libavdevice    534.100 / 534.100
  43.   libavfilter     2. 62.1012. 62.101
  44.   libswscale      21.10021.100
  45.   libswresample   07.10007.100
  46.   libpostproc    520.100 / 520.100
  47. Input #0, mov,mp4,m4a,3gp,3g2,mj2, from 'DIVISION_ONLINED_23_98.mov':
  48.   Metadata:
  49.     major_brand     : qt 
  50.     minor_version   : 537199360
  51.     compatible_brands: qt 
  52.     creation_time   : 2010-04-19 03:01:54
  53.   Duration: 00:10:39.88, start: 0.000000, bitrate: 161379 kb/s
  54.     Stream #0:0(eng): Video: prores (ap4h / 0x68347061), yuv444p10le, 1920x1080, 159814 kb/s, SAR 1:1 DAR 16:9, 23.98 fps, 23.98 tbr, 23976 tbn, 23976 tbc
  55.     Metadata:
  56.       creation_time   : 2010-04-19 03:01:54
  57.       handler_name    : ?Apple Alias Data Handler
  58.     Stream #0:1(eng): Audio: pcm_s16le (sowt / 0x74776F73), 48000 Hz, 2 channels, s16, 1536 kb/s
  59.     Metadata:
  60.       creation_time   : 2010-04-19 03:01:54
  61.       handler_name    : ?Apple Alias Data Handler
  62.     Stream #0:2(eng): Data: none (tmcd / 0x64636D74)
  63.     Metadata:
  64.       creation_time   : 2010-04-19 03:08:57
  65.       handler_name    : ?Apple Alias Data Handler
  66.       timecode        : 00:59:41:23
  67. File 'Pro_res_test.mov' already exists. Overwrite ? [y/N] y
  68. Output #0, mov, to 'Pro_res_test.mov':
  69.   Metadata:
  70.     major_brand     : qt 
  71.     minor_version   : 537199360
  72.     compatible_brands: qt 
  73.     creation_time   : 2010-04-19 03:01:54
  74.     encoder         : Lavf54.1.100
  75.     Stream #0:0(eng): Video: prores (ap4h / 0x68347061), yuv444p10le, 1920x1080 [SAR 1:1 DAR 16:9], q=2-31, 159814 kb/s, 23.98 fps, 23976 tbn, 23976 tbc
  76.     Metadata:
  77.       creation_time   : 2010-04-19 03:01:54
  78.       handler_name    : ?Apple Alias Data Handler
  79.     Stream #0:1(eng): Audio: pcm_s16le (sowt / 0x74776F73), 48000 Hz, 2 channels, 1536 kb/s
  80.     Metadata:
  81.       creation_time   : 2010-04-19 03:01:54
  82.       handler_name    : ?Apple Alias Data Handler
  83. Stream mapping:
  84.   Stream #0:0 -> #0:0 (copy)
  85.   Stream #0:1 -> #0:1 (copy)
  86.  
  87.  
  88. $ ffprobe Pro_res_test.mov
  89. ffprobe version N-38122-gf16c950 Copyright (c) 2007-2012 the FFmpeg developers
  90.   built on Feb 22 2012 15:48:49 with gcc 4.6.1
  91.   configuration: --enable-nonfree --enable-libopenjpeg --enable-libx264 --enable-shared --enable-vaapi --enable-gpl --enable-debug
  92.   libavutil      51. 40.100 / 51. 40.100
  93.   libavcodec     544.100 / 544.100
  94.   libavformat    541.100 / 541.100
  95.   libavdevice    534.100 / 534.100
  96.   libavfilter     2. 62.1012. 62.101
  97.   libswscale      21.10021.100
  98.   libswresample   07.10007.100
  99.   libpostproc    520.100 / 520.100
  100. Input #0, mov,mp4,m4a,3gp,3g2,mj2, from 'Pro_res_test.mov':
  101.   Metadata:
  102.     major_brand     : qt 
  103.     minor_version   : 512
  104.     compatible_brands: qt 
  105.     creation_time   : 2010-04-19 03:01:54
  106.     encoder         : Lavf54.1.100
  107.   Duration: 00:00:10.05, start: 0.000000, bitrate: 108621 kb/s
  108.     Stream #0:0(eng): Video: prores (ap4h / 0x68347061), yuv422p10le, 1920x1080, 107087 kb/s, 23.98 fps, 23.98 tbr, 23976 tbn, 23976 tbc
  109.     Metadata:
  110.       creation_time   : 2010-04-19 03:01:54
  111.       handler_name    :
  112.                         DataHandler
  113.     Stream #0:1(eng): Audio: pcm_s16le (sowt / 0x74776F73), 48000 Hz, 2 channels, s16, 1536 kb/s
  114.     Metadata:
  115.       creation_time   : 2010-04-19 03:01:54
  116.       handler_name    :
  117.                         DataHandler

Update the Post

Either update this post and resubmit it with changes, or make a new post.

You may also comment on this post.

update paste below
details of the post (optional)

Note: Only the paste content is required, though the following information can be useful to others.

Save name / title?

(space separated, optional)



Please note that information posted here will expire by default in one month. If you do not want it to expire, please set the expiry time above. If it is set to expire, web search engines will not be allowed to index it prior to it expiring. Items that are not marked to expire will be indexable by search engines. Be careful with your passwords. All illegal activities will be reported and any information will be handed over to the authorities, so be good.

comments powered by Disqus